<?xml version="1.0" standalone="no"?>
<!DOCTYPE svg PUBLIC "-//W3C//DTD SVG 1.1//EN" "http://www.w3.org/Graphics/SVG/1.1/DTD/svg11.dtd" >
<svg xmlns="http://www.w3.org/2000/svg">
<metadata>Generated by IcoMoon</metadata>
<defs>
<font id="icomoon" horiz-adv-x="1024">
<font-face units-per-em="1024" ascent="960" descent="-64" />
<missing-glyph horiz-adv-x="1024" />
<glyph unicode="&#x20;" horiz-adv-x="512" d="" />
<glyph unicode="&#xe900;" glyph-name="cal-round" d="M511.595 960c-282.596-0.231-511.595-229.372-511.595-512v0c0-282.77 229.23-512 512-512v0c282.77 0 512 229.23 512 512v0c0 282.77-229.23 512-512 512v0c-0.060 0-0.131 0-0.202 0s-0.143 0-0.214 0h0.012zM402.833 659.81c8.363 0 15.143-6.779 15.143-15.143v-18.19h78.048v18.19c0 8.364 6.779 15.143 15.143 15.143s15.143-6.779 15.143-15.143v-18.19h78.881v18.19c0 8.364 6.779 15.143 15.143 15.143s15.143-6.779 15.143-15.143v-18.19h23.19c35.919 0 65.143-29.225 65.143-65.143v-95c0-8.364-6.78-15.143-15.143-15.143s-15.143 6.779-15.143 15.143v95c0 19.221-15.635 34.857-34.857 34.857h-23.19v-18.19c0-8.364-6.78-15.143-15.143-15.143s-15.143 6.779-15.143 15.143v18.19h-78.881v-18.19c0-8.364-6.779-15.143-15.143-15.143s-15.143 6.779-15.143 15.143v18.19h-78.048v-18.19c0-8.364-6.78-15.143-15.143-15.143s-15.143 6.779-15.143 15.143v18.19h-22.357c-19.222 0-34.857-15.636-34.857-34.857v-260c0-19.222 15.635-34.857 34.857-34.857h127.5c8.364 0 15.143-6.78 15.143-15.143s-6.779-15.143-15.143-15.143h-127.5c-35.918 0-65.143 29.224-65.143 65.143v260c0 35.918 29.225 65.143 65.143 65.143h22.357v18.19c0 8.364 6.779 15.143 15.143 15.143zM402.833 501.476c8.363 0 15.143-6.779 15.143-15.143 0-8.363-6.78-15.143-15.143-15.143s-15.143 6.78-15.143 15.143c0 8.364 6.779 15.143 15.143 15.143zM475.333 501.476c8.363 0 15.143-6.779 15.143-15.143 0-8.363-6.78-15.143-15.143-15.143s-15.143 6.78-15.143 15.143c0 8.364 6.779 15.143 15.143 15.143zM547.833 501.476c8.364 0 15.143-6.779 15.143-15.143 0-8.363-6.779-15.143-15.143-15.143-8.363 0-15.143 6.78-15.143 15.143s6.78 15.143 15.143 15.143zM620.333 501.476c8.363 0 15.143-6.779 15.143-15.143 0-8.363-6.78-15.143-15.143-15.143s-15.143 6.78-15.143 15.143c0 8.364 6.779 15.143 15.143 15.143zM624.5 434.81c54.758 0 99.31-44.551 99.31-99.31s-44.551-99.31-99.31-99.31c-54.758 0-99.31 44.551-99.31 99.31s44.551 99.31 99.31 99.31zM402.833 428.976c8.363 0 15.143-6.78 15.143-15.143s-6.78-15.143-15.143-15.143c-8.364 0-15.143 6.779-15.143 15.143 0 8.363 6.779 15.143 15.143 15.143zM475.333 428.976c8.363 0 15.143-6.78 15.143-15.143s-6.78-15.143-15.143-15.143c-8.364 0-15.143 6.779-15.143 15.143 0 8.363 6.779 15.143 15.143 15.143zM624.5 404.524c-38.061 0-69.024-30.963-69.024-69.024s30.963-69.024 69.024-69.024 69.024 30.961 69.024 69.024c0 38.061-30.963 69.024-69.024 69.024zM624.5 384.81c8.363 0 15.143-6.779 15.143-15.143v-19.024h9.024c8.364 0 15.143-6.78 15.143-15.143s-6.779-15.143-15.143-15.143h-24.167c-8.364 0-15.143 6.779-15.143 15.143v34.167c0 8.364 6.779 15.143 15.143 15.143zM402.833 356.476c8.363 0 15.143-6.78 15.143-15.143s-6.78-15.143-15.143-15.143c-8.364 0-15.143 6.78-15.143 15.143s6.779 15.143 15.143 15.143zM475.333 356.476c8.363 0 15.143-6.78 15.143-15.143s-6.78-15.143-15.143-15.143c-8.364 0-15.143 6.78-15.143 15.143s6.779 15.143 15.143 15.143z" />
<glyph unicode="&#xe901;" glyph-name="check" d="M1020.826 762.892l-614.688-709.256-406.137 406.136 120.679 120.68 276.53-276.53 494.643 570.744 128.973-111.775z" />
<glyph unicode="&#xe902;" glyph-name="add" d="M512-64c-282.77 0-512 229.228-512 512 0 282.77 229.23 512 512 512 282.772 0 512-229.23 512-512-0.313-282.641-229.359-511.687-512-512zM102.4 439.194c2.422-225.343 186.425-406.403 411.778-405.197 225.355 1.217 407.4 184.246 407.4 409.6 0 225.356-182.044 408.383-407.4 409.6-225.353 1.205-409.355-179.853-411.778-405.197v-8.806zM563.2 192h-102.4v204.8h-204.8v102.4h204.8v204.8h102.4v-204.8h204.8v-102.4h-204.8v-204.8z" />
<glyph unicode="&#xe903;" glyph-name="check-round" d="M512-43.52c-271.336 0.299-491.222 220.185-491.52 491.52v9.83c5.403 270.113 227.799 485.23 497.943 481.645s486.752-224.526 484.987-494.687c-1.765-270.164-221.241-488.255-491.409-488.309zM286.392 468.152l-69.304-69.304 196.608-196.608 393.216 393.216-69.304 69.795-323.912-323.911-127.304 126.812z" />
<glyph unicode="&#xe904;" glyph-name="chevron-round" d="M512-44.308c-271.894 0-492.308 220.412-492.308 492.308 0 271.894 220.414 492.308 492.308 492.308 271.896 0 492.308-220.414 492.308-492.308-0.299-271.77-220.538-492.008-492.308-492.308zM512 841.846c-217.515 0-393.846-176.331-393.846-393.846 0-217.513 176.331-393.846 393.846-393.846 217.513 0 393.846 176.333 393.846 393.846-0.244 217.414-176.431 393.602-393.846 393.846zM509.538 275.692l-243.692 243.692 69.612 69.612 174.080-174.029 174.080 174.029 69.612-69.612-243.692-243.692z" />
<glyph unicode="&#xe905;" glyph-name="cal" d="M910.223-64h-796.446c-62.838 0-113.778 45.844-113.778 102.4v716.8c0 56.554 50.94 102.4 113.778 102.4h113.778v102.4h113.778v-102.4h341.331v102.4h113.782v-102.4h113.777c62.838 0 113.777-45.846 113.777-102.4v-716.8c0-56.556-50.939-102.4-113.777-102.4zM113.778 550.4v-512h796.446v512h-796.446zM113.778 755.2v-102.4h796.446v102.4h-796.446zM796.447 140.8h-113.782v102.4h113.782v-102.4zM568.888 140.8h-113.777v102.4h113.777v-102.4zM341.334 140.8h-113.778v102.4h113.778v-102.4zM796.447 345.6h-113.782v102.4h113.782v-102.4zM568.888 345.6h-113.777v102.4h113.777v-102.4zM341.334 345.6h-113.778v102.4h113.778v-102.4z" />
<glyph unicode="&#xe906;" glyph-name="chat" d="M921.498 81.674c178.237 205.582 116.217 525.184-126.191 649.86-70.007 135.568-211.509 228.466-374.306 228.466-232.128 0-420.976-188.86-420.976-421 0-102.198 36.176-198.854 102.474-275.327l-93.548-92.317c-18.96-18.719-5.826-51.227 20.93-51.357l225.912-1.072c77.85-113.289 206.456-182.927 347.2-182.927 0.287 0 390.895 2 391.12 2 26.665 0.13 39.95 32.577 20.931 51.357l-93.546 92.317zM165.524 283.966c-68.034 68.16-105.504 158.734-105.504 255.034 0 199.056 161.936 361 360.98 361s360.98-161.944 360.98-361c0-190.746-150.946-362.538-372.687-360.804l-306.516 1.454 62.586 61.768c11.836 11.68 11.906 30.775 0.16 42.548zM602.993-4c-105.269 0-203.114 44.981-271.13 122.559 114.207-0.751 83.889-0.56 89.138-0.56 270.807 0 473.013 254.019 409.375 519.235 165.936-135.548 179.528-383.555 28.092-535.271-11.749-11.769-11.674-30.863 0.164-42.544l62.587-61.768c-0.239 0-317.994-1.652-318.225-1.652zM242.027 628h359.98c16.568 0 29.998 13.432 29.998 30s-13.429 30-29.998 30h-359.98c-16.568 0-29.998-13.431-29.998-30s13.431-30 29.998-30zM242.027 508h359.98c16.568 0 29.998 13.431 29.998 30s-13.429 30-29.998 30h-359.98c-16.568 0-29.998-13.432-29.998-30s13.431-30 29.998-30zM242.027 388h359.98c16.568 0 29.998 13.432 29.998 30s-13.429 30-29.998 30h-359.98c-16.568 0-29.998-13.432-29.998-30s13.431-30 29.998-30z" />
<glyph unicode="&#xe907;" glyph-name="info" d="M512-64c-282.77 0-512 229.233-512 512 0 282.77 229.23 512 512 512 282.767 0 512-229.23 512-512-0.312-282.639-229.361-511.688-512-512zM409.088 499.712v-102.912h51.2v-204.8h154.624v102.4h-51.712l0.512 205.261-154.624 0.051zM460.288 704v-103.373h103.424v103.373h-103.424z" />
<glyph unicode="&#xe908;" glyph-name="chevron" d="M727.090 960l-516.259-512 516.259-512 86.092 85.323-430.285 426.677 430.285 426.677-86.092 85.323z" />
<glyph unicode="&#xe909;" glyph-name="time" d="M947.265 446.678c0 21.169 15.877 39.689 39.689 39.689 21.169 0 37.046-18.52 37.046-39.689 0-283.122-227.556-510.678-510.678-510.678-283.12 0-513.322 227.556-513.322 510.678 0 283.12 230.202 513.322 513.322 513.322 108.488 0 214.328-34.398 301.642-97.902l84.675 84.672c13.228 13.23 37.041 5.292 42.333-13.23l44.982-259.307c2.648-18.522-10.584-31.752-29.105-29.106l-259.305 44.982c-18.525 5.292-26.461 29.106-13.233 42.336l74.086 74.088c-71.438 47.628-158.757 74.088-246.077 74.088-240.784 0-433.942-193.158-433.942-433.942 0-238.141 193.158-433.943 433.942-433.943 238.141 0 433.943 195.803 433.943 433.943zM473.628 740.356c0 23.814 15.877 39.69 39.694 39.69 21.164 0 37.041-15.876 37.041-39.69v-293.706c0-10.584-2.644-18.52-10.584-26.461l-156.112-156.113c-15.876-15.877-39.69-15.877-55.566 0-15.876 13.233-15.876 39.689 0 55.566l145.528 142.885v277.829z" />
<glyph unicode="&#xe90a;" glyph-name="todo" d="M512 939.52c-271.459 0-491.52-220.061-491.52-491.52v0c0-271.459 220.061-491.52 491.52-491.52v0c271.459 0 491.52 220.061 491.52 491.52v0c0 271.459-220.061 491.52-491.52 491.52v0zM666.080 720.96c12.728-0.502 25.396-2.798 37.6-6.88 3.42-1.386 6.404-3.7 8.64-6.64v-1.44c3.838-3.87 6-9.104 6-14.56s-2.162-10.691-6-14.56l-54.4-53.92 31.76-31.76 48.56 46.080c0.983 2.748 2.537 5.26 4.56 7.36s4.497 3.717 7.2 4.8c3.949 1.57 8.271 1.878 12.4 0.88s7.838-3.279 10.64-6.48h1.040c1.847-2.030 3.242-4.371 4.16-6.96s1.352-5.336 1.2-8.080c5.997-20.122 7.237-41.398 3.6-62.080s-12.059-40.189-24.56-57.040c-12.497-16.847-28.734-30.563-47.44-40s-39.385-14.38-60.32-14.4c-11.69 0.238-23.271 1.908-34.56 4.96l-170.72-168.56v166.88c-0.012 3.305-0.523 6.635-1.6 9.76l80.48 82.56c-4.923 22.852-3.977 46.648 2.72 69.040s18.95 42.679 35.6 59.040c17.773 18.664 40.467 31.864 65.44 38.080 12.487 3.108 25.272 4.422 38 3.92zM403.44 428.64v-167.52c0.077-2.658 0.537-5.288 1.28-7.84l-5.76-5.76c-11.556-11.497-27.243-17.988-43.52-18-12.227-0.029-24.14 3.609-34.32 10.4-10.18 6.795-18.104 16.435-22.8 27.76-4.696 11.321-5.972 23.81-3.6 35.84s8.239 23.081 16.88 31.76l91.84 93.36z" />
<glyph unicode="&#xe90b;" glyph-name="user" d="M512.005-64c-77.411-0.22-153.845 17.295-223.437 51.2-25.469 12.39-49.872 26.86-72.96 43.264l-7.014 5.12c-63.497 46.868-115.411 107.663-151.757 177.715-37.594 72.504-57.093 153.027-56.835 234.701 0 282.77 229.233 512 512.003 512 282.767 0 512-229.23 512-512 0.256-81.633-19.22-162.12-56.781-234.598-36.296-70.011-88.136-130.785-151.552-177.664-23.921-17.51-49.311-32.927-75.878-46.080l-4.096-2.048c-69.637-34.084-146.161-51.743-223.693-51.61zM512.005 192c-76.724 0.148-147.064-42.701-182.118-110.95 114.759-56.842 249.477-56.842 364.237 0v0.256c-35.098 68.173-105.441 110.93-182.118 110.694zM512.005 294.4c110.904-0.143 213.166-59.909 267.725-156.467l0.768 0.666 0.717 0.614-0.87-0.768-0.512-0.41c129.485 111.867 175.785 292.439 116.101 452.807-59.679 160.37-212.762 266.741-383.877 266.741s-324.199-106.371-383.88-266.741c-59.681-160.368-13.381-340.94 116.104-452.807 54.593 96.512 156.844 156.232 267.725 156.365zM512.005 345.6c-113.108 0-204.8 91.694-204.8 204.8 0 113.108 91.692 204.8 204.8 204.8 113.106 0 204.8-91.692 204.8-204.8 0-54.317-21.576-106.409-59.986-144.814-38.405-38.41-90.496-59.986-144.814-59.986zM512.005 652.8c-56.554 0-102.4-45.846-102.4-102.4s45.846-102.4 102.4-102.4c56.556 0 102.4 45.846 102.4 102.4s-45.844 102.4-102.4 102.4z" />
<glyph unicode="&#xe90c;" glyph-name="star" d="M1022.53 571.161c-3.53 11.386-12.914 19.685-24.215 21.404l-317.444 48.359-141.971 301.547c-5.052 10.735-15.482 17.53-26.899 17.53-11.421 0-21.849-6.795-26.903-17.53l-141.975-301.547-317.439-48.359c-11.298-1.719-20.688-10.017-24.216-21.402-3.53-11.386-0.586-23.885 7.592-32.24l229.695-234.723-54.216-331.437c-1.932-11.8 2.696-23.721 11.934-30.758 5.225-3.98 11.415-6.005 17.635-6.005 4.777 0 9.569 1.193 13.957 3.612l283.933 156.485 283.921-156.483c10.109-5.57 22.355-4.644 31.593 2.393 9.238 7.035 13.868 18.96 11.939 30.76l-54.234 331.433 229.719 234.725c8.176 8.353 11.123 20.851 7.592 32.236z" />
<glyph unicode="&#xe90d;" glyph-name="tool" d="M76.004 448.882l229.315 229.601v-0.287c20.029 19.743 45.865 29.604 71.7 29.604s51.671-9.871 71.404-29.317l297.526-297.524c19.738-19.743 29.599-45.865 29.599-71.7h-0.297c0-25.836-9.574-51.671-29.317-71.404l-229.304-229.315h-0.287c-19.443-19.743-45.279-29.604-71.401-29.604-25.836 0-51.671 9.871-71.404 29.317v0.287l-297.533 297.533c-19.743 19.743-29.604 45.568-29.604 71.404-0.010 25.836 9.861 51.958 29.604 71.405zM363.369 620.432l-229.315-229.316c-3.779-3.768-5.806-8.704-5.806-13.64s2.028-9.871 5.519-13.64h0.287l297.523-297.523c3.482-3.768 8.417-5.519 13.353-5.519v-0.287c4.936 0 10.158 2.028 13.937 5.806h-0.287l229.312 229.315h0.287c3.768 3.768 5.519 8.704 5.519 13.64s-2.028 9.871-5.806 13.64l-297.531 297.524c-3.779 3.768-8.704 5.806-13.353 5.806v-0.287c-5.222 0-10.158-1.741-13.64-5.222v-0.297zM716.621 492.744c-21.77 5.806-34.836 28.16-29.030 49.93s28.447 34.836 50.217 29.030l67.922-18.289 99.564 99.564-6.39 23.798-51.671-51.958-29.030-29.030-142.817 142.817 29.030 28.733 50.801 51.087-22.641 6.676-99.277-99.277 18.289-67.922c5.806-21.77-7.26-44.411-29.030-50.217s-44.124 7.26-49.93 29.030l-24.381 90.849-6.093 22.927 166.605 166.605 23.511-6.676 93.174-27.576 87.081-23.224-50.217-50.217-71.117-70.83 26.993-26.993 123.075 123.075 18.575-68.506 6.39-24.095 24.381-90.849 6.093-22.641-166.318-166.318-22.927 6.093-90.829 24.402zM639.995 619.336l-66.181-66.181 58.337-58.051 66.181 66.181 57.764-58.051-95.201-95.212-28.744-29.020-174.151 174.152 29.020 29.030 95.211 94.915 57.764-57.764zM49.594 638.48l161.966 161.679c15.094 15.094 34.54 22.641 54.282 22.641s39.475-7.547 54.282-22.641l72.571-72.571 29.030-28.733-216.259-216.248c-14.807-15.094-34.54-22.354-54.282-22.354-19.446 0-39.188 7.547-53.985 22.354h-0.287l-47.309 47.309c-14.807 14.807-22.354 34.54-22.354 54.282-0.010 19.456 7.537 39.188 22.344 54.282zM265.842 738.627l-154.419-154.419 39.762-40.059 154.716 154.716-40.059 39.762zM633.324 223.386c15.964-15.964 41.8-15.964 57.764 0s15.964 42.086 0 58.051l-48.189 48.189c-15.964 15.964-41.8 15.964-58.051 0-15.964-15.964-15.964-41.8 0-57.764l48.476-48.476zM554.936 143.288c15.964-15.964 42.086-15.964 58.051 0s15.964 42.086 0 58.051l-48.476 48.189c-15.964 15.964-41.8 15.964-57.763 0s-15.964-42.086 0-58.051l48.188-48.189zM474.838 65.172c15.964-16.251 41.801-16.251 58.052 0 15.964 15.964 15.964 41.8 0 57.764l-48.478 48.189c-15.964 15.964-41.8 15.964-57.764 0s-15.964-41.8 0-57.764l48.189-48.189z" />
<glyph unicode="&#xe90e;" glyph-name="alert" d="M512-64c282.769 0 512 229.231 512 512s-229.231 512-512 512c-282.77 0-512-229.23-512-512s229.23-512 512-512zM437.683 733.081h148.612l-13.589-419.839h-121.434l-13.589 419.839zM588.958 196.241c-0.593-42.547-36.343-76.821-76.821-76.821-42.543 0-77.406 34.274-76.817 76.821-0.589 41.954 34.274 75.93 76.817 75.93 40.478 0 76.228-33.975 76.821-75.93z" />
<glyph unicode="&#xe90f;" glyph-name="confirm" d="M782.455 691.655c-1.060 0.178-2.287 0.278-3.533 0.278s-2.471-0.101-3.664-0.298l0.131 0.019c-2.351-0.882-4.371-2.124-6.109-3.672l0.021 0.017-330.395-314.557-159.35 143.513c-1.718 1.531-3.743 2.771-5.959 3.612l-0.133 0.043c-1.026 0.236-2.201 0.373-3.411 0.373s-2.386-0.137-3.516-0.39l0.105 0.021c-2.443-0.3-4.666-0.989-6.696-2.004l0.118 0.054c-2.090-1.17-3.865-2.632-5.339-4.358l-0.023-0.028-68.467-85.767c-2.45-2.87-3.942-6.628-3.942-10.728 0-0.426 0.017-0.848 0.047-1.266l-0.004 0.056c0.475-4.456 2.535-8.36 5.593-11.195l0.013-0.011 239.756-222.7c3.097-3.159 7.41-5.12 12.182-5.12s9.086 1.957 12.18 5.118l0.002 0.002 409.83 394.721c2.996 2.867 4.977 6.775 5.358 11.142l0.004 0.066c0.015 0.265 0.023 0.572 0.023 0.884 0 4.206-1.478 8.067-3.945 11.084l-68.439 85.49c-1.514 1.985-3.379 3.619-5.514 4.829l-0.090 0.045c-1.713 0.482-3.685 0.758-5.72 0.758-0.39 0-0.773-0.011-1.158-0.030l0.054 0.002zM438.903 219.45l-216.853 201.016 46.293 58.964 157.646-142.050c3.174-2.989 7.465-4.829 12.182-4.829s9.009 1.835 12.193 4.833l-0.011-0.009 329.667 313.099 47.025-58.964zM524.182 915.573c-0.073 0-0.156 0-0.244 0-265.097 0-480-214.903-480-480s214.903-480 480-480c265.097 0 480 214.903 480 480 0 132.549-53.728 252.549-140.59 339.41v0c-86.86 86.72-206.729 140.405-339.134 140.59h-0.034zM524.182-10.314c-245.726 0.169-444.859 199.41-444.859 445.159 0 245.853 199.303 445.159 445.159 445.159s445.159-199.303 445.159-445.159c0-122.94-49.835-234.242-130.41-314.801v0c-80.517-80.108-191.534-129.628-314.116-129.628-0.33 0-0.655 0-0.983 0.002h0.049z" />
<glyph unicode="&#xe910;" glyph-name="location" d="M1019.837 7.895l-135.905 344.397c-7.552 18.555-24.812 31.309-44.227 31.309h-66.872c-14.024-31.309-30.203-64.937-48.543-103.204h84.137l94.92-241.193h-783.091l94.92 241.193h84.133c-18.337 37.105-34.516 71.895-48.539 103.204h-67.954c-19.416 0-36.674-12.754-44.224-31.309l-134.83-344.397c-6.472-16.236-4.315-34.79 4.315-48.707s23.73-23.188 39.91-23.188h928.709c16.179 0 31.278 8.115 39.905 23.188 8.632 15.078 9.708 33.628 3.236 48.707zM563.589 180.756c74.424 139.151 203.858 396.579 203.858 504.42 0 151.906-114.335 274.823-255.635 274.823-141.301 0-255.637-122.917-255.637-274.823 0-107.842 129.437-365.269 203.863-504.42 22.651-42.906 79.82-42.906 103.551 0zM392.083 685.177c0 70.735 52.853 127.555 118.65 127.555 65.799 0 118.652-56.82 118.652-127.555s-52.854-127.555-118.652-127.555c-65.797 0-118.65 56.82-118.65 127.555z" />
<glyph unicode="&#xe911;" glyph-name="wench" d="M988.017 802.714c-5.55 1.87-11.464 2.398-17.254 1.54s-11.3-3.077-16.067-6.474l-66.637-48.106c-10.22-7.323-22.712-10.779-35.246-9.753s-24.294 6.469-33.188 15.358c-8.893 8.888-14.336 20.645-15.365 33.174-1.024 12.528 2.432 25.014 9.759 35.231l48.128 66.609c3.389 4.721 5.622 10.174 6.513 15.917s0.415 11.616-1.388 17.142c-1.802 5.526-4.879 10.549-8.986 14.664-4.111 4.114-9.129 7.204-14.653 9.019-41.595 13.571-85.924 16.547-128.968 8.657-43.039-7.89-83.43-26.396-117.504-53.839s-60.754-62.956-77.619-103.315c-16.866-40.36-23.385-84.29-18.965-127.806l-462.759-462.56c-26.237-31.959-39.646-72.525-37.617-113.818 2.029-41.288 19.35-80.348 48.593-109.578s68.32-46.546 109.627-48.573c41.307-2.028 81.892 11.377 113.861 37.601l462.76 462.561h25.912c41.405-0.031 82.237 9.718 119.158 28.45 36.925 18.733 68.9 45.919 93.317 79.345s40.591 72.146 47.201 113.005c6.61 40.859 3.466 82.7-9.17 122.115-1.818 5.459-4.879 10.421-8.95 14.489s-9.032 7.132-14.495 8.948zM220.453 25.61c-17.545-16.343-40.75-25.242-64.728-24.817s-46.854 10.132-63.811 27.080c-16.957 16.952-26.671 39.818-27.094 63.785s8.477 47.165 24.825 64.701l431.907 431.725c9.196-19.469 20.803-37.704 34.555-54.274 26.138-32.378 59.535-58.153 97.485-75.244l-433.14-432.957zM895.462 563.415c-22.016-21.675-49.019-37.617-78.638-46.426s-60.948-10.216-91.238-4.098c-30.295 6.118-58.619 19.575-82.493 39.189-23.869 19.614-42.563 44.785-54.436 73.305-11.868 28.52-16.553 59.516-13.645 90.269 2.913 30.752 13.332 60.321 30.341 86.109s40.095 47.009 67.226 61.8c27.131 14.79 57.477 22.698 88.376 23.029h6.17l-13.573-19.736c-18.007-24.472-26.644-54.583-24.346-84.874s15.375-58.756 36.864-80.236c21.489-21.48 49.966-34.553 80.271-36.849s60.426 6.337 84.91 24.334l18.509 13.569c1.004-25.714-3.297-51.359-12.641-75.339-9.339-23.98-23.521-45.781-41.656-64.046z" />
<glyph unicode="&#xe912;" glyph-name="mail" d="M51.183 713.171l428.032-295.936c20.48-14.336 47.104-14.336 66.56 0l427.008 295.936c16.384 11.264 25.6 28.672 25.6 48.128 0 32.768-26.624 58.368-58.368 58.368h-856.064c-32.768 0-58.368-26.624-58.368-58.368 0-18.432 9.216-36.864 25.6-48.128zM940.015 590.236l-394.24-272.384c-20.48-14.336-47.104-14.336-66.56 0l-395.264 272.384c-24.576 17.408-58.368-1.024-58.368-30.72v-425.984c0-32.768 26.624-58.368 58.368-58.368h855.040c32.768 0 58.368 26.624 58.368 58.368v427.008c1.024 29.696-32.768 47.104-57.344 29.696z" />
<glyph unicode="&#xe913;" glyph-name="call" d="M867.524 276.289c-28.075 29.153-57.671 56.801-88.664 82.825-38.727 33.087-73.176 27.748-100.545 3.883-27.469-23.797-41.233-35.655-68.836-59.275-6.34-5.279-14.376-8.087-22.625-7.908-8.249 0.182-16.156 3.337-22.261 8.889-44.527 38.426-225.778 219.674-264.201 264.203-5.552 6.104-8.707 14.009-8.886 22.258-0.182 8.249 2.628 16.284 7.905 22.628 23.62 27.602 35.479 41.37 59.275 68.835 23.862 27.37 29.201 61.821-3.88 100.544-26.024 30.994-53.672 60.59-82.824 88.663-47.936 47.044-94.246 49.298-137.725 6.352-27.084-28.38-49.277-61.052-65.676-96.689-78.507-167.198 128.724-386.616 225.357-483.248 96.64-96.637 316.055-303.866 483.251-225.36 35.638 16.398 68.309 38.591 96.688 65.675 42.945 43.474 40.693 89.785-6.354 137.725z" />
</font>
</defs>
</svg>
